Tadap 3 Finale (2019) ULLU Hindi 720p WEB DL

seeders: 164
leechers: 58
updated:
Added by krishh1337 in Other


ᕦ( ▨̅ ͜▨̅ )ᕥ SPECIAL DEAL - OFFER ᕦ( ▨̅ ͜▨̅ )ᕥ
strongly advises you to use Nord while downloading torrents.
Nord is the safest on the market, and the fastest as well.
No IP Log is saved using Nord, avoid other providers and choose the safest one.
Click here and buy Nord it's on rebates today!
We were able to verify your IP: 18.232.55.175, country: United States and you are near by: Ashburn.
If we can do that, others can too, protect your privacy with Nord.
is trying the best for you!
ᕦ( ▨̅ ͜▨̅ )ᕥ SPECIAL DEAL - OFFER ᕦ( ▨̅ ͜▨̅ )ᕥ


Tadap 3 Finale (2019) ULLU Hindi 720p WEB DL Size: 707.7 MB (742077235 Bytes)

Description

 

Tadap Finale (2019) : 
A Love story based in a city of West Bengal trapped in old tradition of our society, 
where a girl sacrifices everything for her love. To become a single soul, 
both choose a path and soon face the ocean of troubles. 
While they are trying to handle things, destiny interferes and a well-settled single parent 
enters in the girl's life showing difference between dreams and reality.

Cast
Indraneil Sengupta ( Azeem ), Param Singh ( Mohit ), Shiny Dixit ( Madhvi ), 
Rituraj Singh ( Gajendra ), Papiya Sengupta ( Rama )
Director
Deepak Pandey.

Format                      : Matroska
Format version              : Version 4
File size                   : 708 MiB
Duration                    : 1 h 28 min
Overall bit rate            : 1 115 kb/s

Video
ID                          : 1
Format                      : AVC
Format/Info                 : Advanced Video Codec
Format profile              : [email protected] 
Format settings             : 1 Ref Frames
Format settings, CABAC      : No
Format settings, ReFrames   : 1 frame
Codec ID                    : V_MPEG4/ISO/AVC
Duration                    : 1 h 28 min
Bit rate                    : 987 kb/s
Width                       : 1 280 pixels
Height                      : 720 pixels
Display aspect ratio        : 16:9
Frame rate mode             : Constant
Frame rate                  : 25.000 FPS
Color space                 : YUV
Chroma subsampling          : 4:2:0
Bit depth                   : 8 bits
Scan type                   : Progressive
Bits/(Pixel*Frame)          : 0.043
Stream size                 : 627 MiB (89%)
Writing library             : x264 core 

Audio
ID                          : 2
Format                      : AAC LC
Format/Info                 : Advanced Audio Codec Low Complexity
Codec ID                    : A_AAC-2
Duration                    : 1 h 28 min
Bit rate                    : 126 kb/s
Channel(s)                  : 2 channels
Channel layout              : L R
Sampling rate               : 44.1 kHz
Frame rate                  : 43.066 FPS (1024 SPF)
Compression mode            : Lossy
Delay relative to video     : -25 ms
Stream size                 : 79.7 MiB (11%)
Language                    : Hindi
Default                     : Yes
Forced                      : No


Sharing Widget


Download torrent
Size: 707.7 MB
seeders:164
leechers:58
Tadap 3 Finale (2019) ULLU Hindi 720p WEB DL - (742077235 Bytes)



To share this torrent use the code below and insert it into comments, status messages, forum posts or your signature.

Torrent: Tadap 3 Finale (2019) ULLU Hindi 720p WEB DL

Trackers

tracker name
udp://tracker.leechers-paradise.org:6969/announce
udp://9.rarbg.to:2800/announce
http://tracker3.itzmx.com:6961/announce
http://tracker1.itzmx.com:8080/announce
http://tracker.electro-torrent.pl:80/announce
udp://eddie4.nl:6969/announce
udp://thetracker.org:80/announce
udp://bt.xxx-tracker.com:2710/announce
http://retracker.gorcomnet.ru/announce
udp://tracker.coppersurfer.tk:6969/announce
udp://tracker.opentrackr.org:1337/announce
udp://tracker.open-internet.nl:6969/announce
udp://tracker.port443.xyz:6969/announce
udp://185.225.17.100:1337/announce
udp://tracker.zer0day.to:1337/announce
udp://tracker.leechers-paradise.org:6969/announce
udp://coppersurfer.tk:6969/announce
µTorrent compatible trackers list

Locations

name
KickassTorrents
Torrent hash: 817ECEABF626D91F4E47CCCB22BA2B4C4EA6690F

ᕦ( ▨̅ ͜▨̅ )ᕥ SPECIAL DEAL - OFFER ᕦ( ▨̅ ͜▨̅ )ᕥ
strongly advises you to use Nord while downloading torrents.
Nord is the safest on the market, and the fastest as well.
No IP Log is saved using Nord, avoid other providers and choose the safest one.
Click here and buy Nord it's on rebates today!
We were able to verify your IP: 18.232.55.175, country: United States and you are near by: Ashburn.
If we can do that, others can too, protect your privacy with Nord.
is trying the best for you!
ᕦ( ▨̅ ͜▨̅ )ᕥ SPECIAL DEAL - OFFER ᕦ( ▨̅ ͜▨̅ )ᕥ

All Comments

*comments box temporarily disabled*
Report a bug