Ujda Chaman (2019) Hindi 720p HDRip x264 AAC ESubs 1.3GB - MovCr

seeders: 557
leechers: 199
updated:
Added by MovCr in Other


ᕦ( ▨̅ ͜▨̅ )ᕥ SPECIAL DEAL - OFFER ᕦ( ▨̅ ͜▨̅ )ᕥ
strongly advises you to use Nord while downloading torrents.
Nord is the safest on the market, and the fastest as well.
No IP Log is saved using Nord, avoid other providers and choose the safest one.
Click here and buy Nord it's on rebates today!
We were able to verify your IP: 18.232.55.175, country: United States and you are near by: Ashburn.
If we can do that, others can too, protect your privacy with Nord.
is trying the best for you!
ᕦ( ▨̅ ͜▨̅ )ᕥ SPECIAL DEAL - OFFER ᕦ( ▨̅ ͜▨̅ )ᕥ


Description

https://MovCr.to 

Ujda Chaman (2019) Hindi 720p HDRip x264 AAC ESubs 1.3GB - MovCr  

Plot :
Chaman Kohli is 30 -year-old bachelor with Premature Balding and in quest of a beautiful wife. Chaman hits rock bottom when an astrologer gives him a deadline to find himself a wife or remain a celibate forever.
  

 

Media Info :
General
Unique ID : 232306619506655535257125358371016079598 (0xAEC4A0A272167410116CF9E3C0CCF8EE)
Complete name : www.MovCr.to - Ujda Chaman (2019) Hindi 720p HDRip x264 AAC ESubs 1.3GB - MovCr.mkv
Format : Matroska
Format version : Version 4 / Version 2
File size : 1.31 GiB
Duration : 1 h 55 min
Overall bit rate : 1 627 kb/s
Movie name : www.MovCr.to
Encoded date : UTC 2019-12-26 19:03:44
Writing application : mkvmerge v41.0.0 ('Smarra') 64-bit
Writing library : libebml v1.3.9 + libmatroska v1.5.2

Video
ID : 1
Format : HEVC
Format/Info : High Efficiency Video Coding
Format profile : [email protected]@Main
Codec ID : V_MPEGH/ISO/HEVC
Duration : 1 h 55 min
Bit rate : 985 kb/s
Width : 1 280 pixels
Height : 544 pixels
Display aspect ratio : 2.35:1
Original display aspect ratio : 2.35:1
Frame rate mode : Constant
Frame rate : 25.000 FPS
Standard : NTSC
Color space : YUV
Chroma subsampling : 4:2:0
Bit depth : 8 bits
Bits/(Pixel*Frame) : 0.057
Stream size : 811 MiB (61%)
Title : www.MovCr.to
Language : Hindi
Default : Yes
Forced : No
Color range : Limited
Color primaries : BT.709
Transfer characteristics : BT.709
Matrix coefficients : BT.709

Audio
ID : 2
Format : E-AC-3
Format/Info : Enhanced Audio Coding 3
Codec ID : A_EAC3
Duration : 1 h 55 min
Bit rate mode : Constant
Bit rate : 640 kb/s
Channel(s) : 6 channels
Channel positions : Front: L C R, Side: L R, LFE
Sampling rate : 48.0 kHz
Frame rate : 187.500 FPS (256 SPF)
Compression mode : Lossy
Stream size : 527 MiB (39%)
Title : www.MovCr.to
Language : Hindi
Service kind : Complete Main
Default : Yes
Forced : No

Text
ID : 3
Format : UTF-8
Codec ID : S_TEXT/UTF8
Codec ID/Info : UTF-8 Plain Text
Duration : 1 h 51 min
Bit rate : 71 b/s
Count of elements : 1938
Stream size : 58.2 KiB (0%)
Title : www.MovCr.to
Language : English
Default : Yes
Forced : No

  


 
 
 
 
 
 
 

Sharing Widget


Download torrent
Size: 1.3 GB
seeders:557
leechers:199
Ujda Chaman (2019) Hindi 720p HDRip x264 AAC ESubs 1.3GB - MovCr - (1395864371 Bytes)



To share this torrent use the code below and insert it into comments, status messages, forum posts or your signature.

Torrent: Ujda Chaman (2019) Hindi 720p HDRip x264 AAC ESubs 1.3GB - MovCr

Trackers

tracker name
udp://tracker.leechers-paradise.org:6969/announce
udp://tracker.internetwarriors.net:1337/announce
udp://tracker.opentrackr.org:1337/announce
udp://9.rarbg.to:2730/announce
udp://tracker.coppersurfer.tk:6969/announce
udp://tracker.pirateparty.gr:6969/announce
udp://tracker.cyberia.is:6969/announce
udp://retracker.lanta-net.ru:2710/announce
udp://9.rarbg.me:2720/announce
udp://tracker.zer0day.to:1337/announce
udp://tracker.tiny-vps.com:6969/announce
udp://ipv6.tracker.harry.lu:80/announce
udp://denis.stalker.upeer.me:6969/announce
udp://tracker.moeking.me:6969/announce
udp://tracker.zer0day.to:1337/announce
udp://tracker.leechers-paradise.org:6969/announce
udp://coppersurfer.tk:6969/announce
µTorrent compatible trackers list

Locations

name
KickassTorrents
Torrent hash: F6AF80A42AD121EC65F07C513ED7E42650D696BD

ᕦ( ▨̅ ͜▨̅ )ᕥ SPECIAL DEAL - OFFER ᕦ( ▨̅ ͜▨̅ )ᕥ
strongly advises you to use Nord while downloading torrents.
Nord is the safest on the market, and the fastest as well.
No IP Log is saved using Nord, avoid other providers and choose the safest one.
Click here and buy Nord it's on rebates today!
We were able to verify your IP: 18.232.55.175, country: United States and you are near by: Ashburn.
If we can do that, others can too, protect your privacy with Nord.
is trying the best for you!
ᕦ( ▨̅ ͜▨̅ )ᕥ SPECIAL DEAL - OFFER ᕦ( ▨̅ ͜▨̅ )ᕥ

All Comments

*comments box temporarily disabled*
Report a bug